Loading...
Error

(Rock & Roll, Pop Rock) Браво - Grand Collection (2001) [FLAC (Image+.CUE), Lossless]

Статистика раздачи
Размер:  401 MB   |    Зарегистрирован:  4 года 3 месяца   |    Скачан:  6 раз

Полного источника не было: 6 месяцев

Сидов:  0  |  0 KB/s  ]   Личеров:  0  |  0 KB/s  ]

* - сиды/пиры с внешних источников

   
 
Автор Сообщение

Бишеп Пол:Муж

25-Май-2018 21:08

Браво - Grand Collection

Жанр: Rock & Roll, Pop Rock
Год выпуска: 2001
Источник: CD
Производитель диска: Moroz Records - MR 99288 CD
Аудиокодек: FLAC
Тип рипа: Image+.CUE
Битрейт аудио: lossless
Продолжительность: 01:01:35


Треклист:
01. Король оранжевое лето
02. Верю я
03. Московский бит
04. Будь со мной
05. Жёлтые ботинки
06. Старый отель
07. Оранжевый галстук
08. Ленинградский рок-н-ролл
09. Кошки
10. Вася
11. Медицинский институт
12. Открытие
13. Добрый вечер, Москва
14. Чудесная страна
15. Дорога в облака
16. Чёрный кот
17. Лучший город земли
18. Джамайка
19. Этот город
20. Ветер знает

Код:

Exact Audio Copy V1.0 beta 3 from 29. August 2011

EAC extraction logfile from 13. June 2015, 8:34

Браво / Grand Collection

Used drive  : TSSTcorpCDDVDW SH-224DB   Adapter: 0  ID: 1

Read mode               : Secure
Utilize accurate stream : Yes
Defeat audio cache      : Yes
Make use of C2 pointers : No

Read offset correction                      : 6
Overread into Lead-In and Lead-Out          : No
Fill up missing offset samples with silence : Yes
Delete leading and trailing silent blocks   : No
Null samples used in CRC calculations       : Yes
Used interface                              : Installed external ASPI interface

Used output format              : User Defined Encoder
Selected bitrate                : 1024 kBit/s
Quality                         : High
Add ID3 tag                     : No
Command line compressor         : D:\Program Files\Foobar2000\encoders\flac.exe
Additional command line options :  -V -8 -T "Date=%year%" -T "Genre=%genre%" %source%

TOC of the extracted CD

     Track |   Start  |  Length  | Start sector | End sector
    ---------------------------------------------------------
        1  |  0:00.00 |  4:40.00 |         0    |    20999   
        2  |  4:40.00 |  3:07.42 |     21000    |    35066   
        3  |  7:47.42 |  3:23.51 |     35067    |    50342   
        4  | 11:11.18 |  2:55.00 |     50343    |    63467   
        5  | 14:06.18 |  3:31.53 |     63468    |    79345   
        6  | 17:37.71 |  4:00.20 |     79346    |    97365   
        7  | 21:38.16 |  3:27.66 |     97366    |   112956   
        8  | 25:06.07 |  2:25.40 |    112957    |   123871   
        9  | 27:31.47 |  2:53.51 |    123872    |   136897   
       10  | 30:25.23 |  3:16.33 |    136898    |   151630   
       11  | 33:41.56 |  2:37.60 |    151631    |   163465   
       12  | 36:19.41 |  1:54.59 |    163466    |   172074   
       13  | 38:14.25 |  2:55.56 |    172075    |   185255   
       14  | 41:10.06 |  2:53.42 |    185256    |   198272   
       15  | 44:03.48 |  3:08.03 |    198273    |   212375   
       16  | 47:11.51 |  2:51.38 |    212376    |   225238   
       17  | 50:03.14 |  2:52.31 |    225239    |   238169   
       18  | 52:55.45 |  1:55.06 |    238170    |   246800   
       19  | 54:50.51 |  3:10.66 |    246801    |   261116   
       20  | 58:01.42 |  3:34.12 |    261117    |   277178   

Range status and errors

Selected range

     Filename D:\Desktop\Браво - Grand Collection (2001)\Браво - Grand Collection.wav

     Peak level 100.0 %
     Extraction speed 3.2 X
     Range quality 100.0 %
     Test CRC 22734E4D
     Copy CRC 22734E4D
     Copy OK

No errors occurred

 
AccurateRip summary
 
Track  1  accurately ripped (confidence 2)  [80F84790]  (AR v2)
Track  2  accurately ripped (confidence 2)  [4E6A34F1]  (AR v2)
Track  3  accurately ripped (confidence 2)  [B3422988]  (AR v2)
Track  4  accurately ripped (confidence 2)  [DF270AEA]  (AR v2)
Track  5  accurately ripped (confidence 2)  [0AE09BA3]  (AR v2)
Track  6  accurately ripped (confidence 2)  [4599145A]  (AR v2)
Track  7  accurately ripped (confidence 2)  [28293DA0]  (AR v2)
Track  8  accurately ripped (confidence 2)  [5CD9F483]  (AR v2)
Track  9  accurately ripped (confidence 2)  [08F06441]  (AR v2)
Track 10  accurately ripped (confidence 2)  [82B93450]  (AR v2)
Track 11  accurately ripped (confidence 2)  [E6FF519E]  (AR v2)
Track 12  accurately ripped (confidence 2)  [9724BC73]  (AR v2)
Track 13  accurately ripped (confidence 2)  [1C7A035D]  (AR v2)
Track 14  accurately ripped (confidence 1)  [2E22863B]  (AR v2)
Track 15  accurately ripped (confidence 2)  [0B08A631]  (AR v2)
Track 16  accurately ripped (confidence 2)  [45047EC1]  (AR v2)
Track 17  accurately ripped (confidence 2)  [7BF8F694]  (AR v2)
Track 18  accurately ripped (confidence 2)  [833F94F3]  (AR v2)
Track 19  accurately ripped (confidence 2)  [14890C4D]  (AR v2)
Track 20  accurately ripped (confidence 2)  [59AE3AA8]  (AR v2)
 
All tracks accurately ripped

End of status report

==== Log checksum 6356E440624E24C543E4171442FFA0E7600CC2F0E2725E304D02470FE14444C5 ====

Код:

REM GENRE Rock, Rock & Roll
REM DATE 1999
REM DISCID 1A0E6F14
REM COMMENT "ExactAudioCopy v1.0b3"
PERFORMER "Браво"
TITLE "Grand Collection"
FILE "Браво - Grand Collection.flac" WAVE
  TRACK 01 AUDIO
    TITLE "Король оранжевое лето"
    PERFORMER "Браво"
    INDEX 01 00:00:00
  TRACK 02 AUDIO
    TITLE "Верю я"
    PERFORMER "Браво"
    INDEX 00 04:38:00
    INDEX 01 04:40:00
  TRACK 03 AUDIO
    TITLE "Московский бит"
    PERFORMER "Браво"
    INDEX 00 07:45:42
    INDEX 01 07:47:42
  TRACK 04 AUDIO
    TITLE "Будь со мной"
    PERFORMER "Браво"
    INDEX 00 11:09:18
    INDEX 01 11:11:18
  TRACK 05 AUDIO
    TITLE "Жёлтые ботинки"
    PERFORMER "Браво"
    INDEX 00 14:04:18
    INDEX 01 14:06:18
  TRACK 06 AUDIO
    TITLE "Старый отель"
    PERFORMER "Браво"
    INDEX 00 17:35:71
    INDEX 01 17:37:71
  TRACK 07 AUDIO
    TITLE "Оранжевый галстук"
    PERFORMER "Браво"
    INDEX 00 21:36:16
    INDEX 01 21:38:16
  TRACK 08 AUDIO
    TITLE "Ленинградский рок-н-ролл"
    PERFORMER "Браво"
    INDEX 00 25:04:07
    INDEX 01 25:06:07
  TRACK 09 AUDIO
    TITLE "Кошки"
    PERFORMER "Браво"
    INDEX 00 27:29:47
    INDEX 01 27:31:47
  TRACK 10 AUDIO
    TITLE "Вася"
    PERFORMER "Браво"
    INDEX 00 30:23:23
    INDEX 01 30:25:23
  TRACK 11 AUDIO
    TITLE "Медицинский институт"
    PERFORMER "Браво"
    INDEX 00 33:39:56
    INDEX 01 33:41:56
  TRACK 12 AUDIO
    TITLE "Открытие"
    PERFORMER "Браво"
    INDEX 00 36:17:41
    INDEX 01 36:19:41
  TRACK 13 AUDIO
    TITLE "Добрый вечер, Москва"
    PERFORMER "Браво"
    INDEX 00 38:12:25
    INDEX 01 38:14:25
  TRACK 14 AUDIO
    TITLE "Чудесная страна"
    PERFORMER "Браво"
    INDEX 00 41:08:06
    INDEX 01 41:10:06
  TRACK 15 AUDIO
    TITLE "Дорога в облака"
    PERFORMER "Браво"
    INDEX 00 44:01:48
    INDEX 01 44:03:48
  TRACK 16 AUDIO
    TITLE "Чёрный кот"
    PERFORMER "Браво"
    INDEX 00 47:09:51
    INDEX 01 47:11:51
  TRACK 17 AUDIO
    TITLE "Лучший город земли"
    PERFORMER "Браво"
    INDEX 00 50:01:14
    INDEX 01 50:03:14
  TRACK 18 AUDIO
    TITLE "Джамайка"
    PERFORMER "Браво"
    INDEX 00 52:53:45
    INDEX 01 52:55:45
  TRACK 19 AUDIO
    TITLE "Этот город"
    PERFORMER "Браво"
    INDEX 00 54:48:51
    INDEX 01 54:50:51
  TRACK 20 AUDIO
    TITLE "Ветер знает"
    PERFORMER "Браво"
    INDEX 00 57:59:42
    INDEX 01 58:01:42

Код:

-----------------------

DON'T MODIFY THIS FILE

-----------------------

PERFORMER: auCDtect Task Manager, ver. 1.6.0 RC1 build 1.6.0.1
Copyright (c) 2008-2010 y-soft. All rights reserved
http://y-soft.org

ANALYZER: auCDtect: CD records authenticity detector, version 0.8.2
Copyright (c) 2004 Oleg Berngardt. All rights reserved.
Copyright (c) 2004 Alexander Djourik. All rights reserved.

FILE: Браво - Grand Collection.flac
  Size: 402620740 Hash: A7302DBE47CE1096AC0B3191C6293D6D Accuracy: -m0
  Conclusion: CDDA 100%
  Signature: 4B1959370B5AC3AB7169BE78B5A1A2DAB22BE5D5

Этот торрент недоступен для скачивания без регистрации, однако доступен по публичной magnet-ссылке (источники с публичных трекеров). Перед использованием ссылки прочтите, пожалуйста Пользовательское соглашение, а также как можно дольше оставайтесь на раздаче! Для того, чтобы скачать сам торрент-файл (который видит больше источников), а также для того, чтобы поблагодарить релизера, вам необходимо зарегистрироваться. Если регистрироваться лень - вы можете также попробовать скачать релиз по нашим партнерским ссылкам ниже. Кроме того, зарегистрированным пользователям не показывается всплывающая реклама при скачивании.

[underverse.me].t105059.torrent
Трекер: Зарегистрирован   [ 25.05.2018 21:08 ]  
Статус: проверено (by Бишеп at 25.05.2018 21:09)
Поблагодарили: 1 человек
Тип торрента: публичный - доступные источники с открытых трекеров: 
Размер: 401 MB (занимает 0.09 DVDR, для записи нужно 1 болванка DVDR/RW)
 
 

Яндекс.Метрика powered by Sphinx


В Н И М А Н И Е
Сайт не распространяет и не хранит электронные версии произведений, а лишь бесплатно и без коммерческой выгоды (не требуя взамен платы,
SMS и т.д.) предоставляет доступ к создаваемому пользователями каталогу ссылок на торрент-файлы, которые содержат только списки хеш-сумм.
Убедительная просьба с жалобами обращаться напрямую к пользователю, разместившему торрент файл.

Вверх