Loading...
Error

Андрей Миронов. Встреча в Концертной студии Останкино [1978 г., творческий вечер, эстрада , SatRip]

Статистика раздачи
Размер:  1.54 GB   |    Зарегистрирован:  4 года 4 месяца   |    Скачан:  16 раз

Полного источника не было: 9 месяцев

Сидов:  0  |  0 KB/s  ]   Личеров:  0  |  0 KB/s  ]

* - сиды/пиры с внешних источников

   
 
Автор Сообщение

ARI71 Пол:Муж

02-Май-2018 06:54

Андрей Миронов. Встреча в Концертной студии Останкино


Год выпуска: 1978
Жанр: творческий вечер, эстрада
Страна: СССР Гостелерадиофонд
В ролях: Андрей Миронов
Описание:
Вечер-встреча Андрея Миронова со зрителями. Актер рассказывает о себе, своей семье, учителях и коллегах, размышляет о проблемах творчества, отвечает на вопросы зрителей. И, конечно, читает монологи из своих ролей, поет, танцует, на ходу перевоплощаясь в некоторых из своих персонажей. Включены фрагменты из популярных фильмов с его участием.

Андре́й Алекса́ндрович Миро́нов (фамилия при рождении — Мена́кер; 7 марта 1941, Москва — 16 августа 1987, Рига) — советский актёр театра и кино, артист эстрады. Народный артист РСФСР (1980).
Качество видео: SatRip

Продолжительность: 00:02:54 + 01:40:26
Формат: AVI
Видео: DivX 5, 704x528, 1859 kbps
Аудио: русский, MP3 2.0, 256 kbps

Код:

Общее
Полное имя : D:\Андрей Миронов. Встреча в Концертной студии Останкино\2 Андрей Миронов. Встреча в Концертной студии Останкино.avi
Формат : AVI
Формат/Информация : Audio Video Interleave
Размер файла : 1,49 Гбайт
Продолжительность : 1 ч. 40 м.
Общий поток : 2125 Кбит/сек
Программа кодирования : VirtualDubMod 1.5.10.1 (build 2439/release)
Библиотека кодирования : VirtualDubMod build 2439/release

Видео
Идентификатор : 0
Формат : MPEG-4 Visual
Профиль формата : Advanced [email protected]
Настройки формата : BVOP2
Параметр BVOP формата : 2
Параметр QPel формата : Нет
Параметр GMC формата : Без точки перехода
Параметр матрицы формата : Default (H.263)
Идентификатор кодека : DX50
Идентификатор кодека/Подсказка : DivX 5
Продолжительность : 1 ч. 40 м.
Битрейт : 1859 Кбит/сек
Ширина : 704 пикселя
Высота : 528 пикселей
Соотношение сторон : 4:3
Частота кадров : 25,000 кадров/сек
Цветовое пространство : YUV
Субдискретизация насыщенности : 4:2:0
Битовая глубина : 8 бит
Тип развёртки : Прогрессивная
Метод сжатия : С потерями
Бит/(Пиксели*Кадры) : 0.200
Размер потока : 1,30 Гбайт (87%)
Библиотека кодирования : XviD 1.2.1 (UTC 2008-12-04)

Аудио
Идентификатор : 1
Формат : MPEG Audio
Версия формата : Version 1
Профиль формата : Layer 3
Настройки формата : Joint stereo / MS Stereo
Идентификатор кодека : 55
Идентификатор кодека/Подсказка : MP3
Продолжительность : 1 ч. 40 м.
Вид битрейта : Постоянный
Битрейт : 256 Кбит/сек
Каналы : 2 канала
Частота : 48,0 КГц
Метод сжатия : С потерями
Размер потока : 184 Мбайт (12%)
Выравнивание : Соединение по промежуткам
Продолжительность промежутка : 40 мс. (1,00 видеокадр)
Время предзагрузки промежутка : 504 мс.
picpicpicpicpicpic
Для увеличения картинки щелкните мышкой по превью

Этот торрент недоступен для скачивания без регистрации, однако доступен по публичной magnet-ссылке (источники с публичных трекеров). Перед использованием ссылки прочтите, пожалуйста Пользовательское соглашение, а также как можно дольше оставайтесь на раздаче! Для того, чтобы скачать сам торрент-файл (который видит больше источников), а также для того, чтобы поблагодарить релизера, вам необходимо зарегистрироваться. Если регистрироваться лень - вы можете также попробовать скачать релиз по нашим партнерским ссылкам ниже. Кроме того, зарегистрированным пользователям не показывается всплывающая реклама при скачивании.

[underverse.me].t103342.torrent
Трекер: Зарегистрирован   [ 02.05.2018 06:54 ]  
Статус: проверено (by ARI71 at 02.05.2018 06:57)
Поблагодарили: 2 человека
Тип торрента: публичный - доступные источники с открытых трекеров: 
Размер: 1.54 GB (занимает 0.35 DVDR, для записи нужно 1 болванка DVDR/RW)
 
 

Яндекс.Метрика powered by Sphinx


В Н И М А Н И Е
Сайт не распространяет и не хранит электронные версии произведений, а лишь бесплатно и без коммерческой выгоды (не требуя взамен платы,
SMS и т.д.) предоставляет доступ к создаваемому пользователями каталогу ссылок на торрент-файлы, которые содержат только списки хеш-сумм.
Убедительная просьба с жалобами обращаться напрямую к пользователю, разместившему торрент файл.

Вверх